#TITLE:Time Machine;
#SUBTITLE:;
#ARTIST:The Click Five;
#TITLETRANSLIT:Time Machine;
#SUBTITLETRANSLIT:;
#ARTISTTRANSLIT:The Click Five;
#CREDIT:;
#BANNER:Time Machine-bn.png;
#BACKGROUND:Time Machine-bg.png;
#LYRICSPATH:;
#CDTITLE:pm4cd.png;
#MUSIC:Time Machine.mp3;
#OFFSET:0.000;
#SAMPLESTART:36.900;
#SAMPLELENGTH:20.000;
#SELECTABLE:YES;
#BPMS:0.000=147.140;
#STOPS:;
#BGCHANGES:;
// cache tags:
#FIRSTBEAT:0.500;
#LASTBEAT:471.500;
#SONGFILENAME:Songs/Music V.I.P ^_^/Time Machine/Time Machine.sm;
#HASMUSIC:1;
#HASBANNER:1;
#MUSICLENGTH:194.952;
// end cache tags

//---------------dance-single - ----------------
#NOTES:
     dance-single:
     :
     Hard:
     16:
     1.000,1.000,1.000,0.374,1.000,1352.000,354.000,73.000,0.000,185.000:
0000
0100
1000
0010
0100
0001
0010
0100
,
1000
0100
0010
0001
0100
0010
1000
0001
,
0100
0010
0001
0010
0100
0001
0010
0100
,
1000
0010
0001
0100
1000
0001
0010
1000
,
0100
0001
1000
0001
0100
0010
1000
0100
,
0010
0001
0100
0010
0001
0010
0100
1000
,
0010
2000
0000
0000
0000
0020
0000
3000
,
0000
0100
1031
0000
0100
0000
0001
0000
1000
0000
0011
0000
0110
0000
1100
0000
,
0010
0100
0001
1000
0100
0011
1001
1100
,
0001
0010
0001
0100
0010
0101
1010
0101
,
0010
1000
0100
0001
0010
1100
0011
1100
,
0001
1000
0010
1000
0100
0011
0101
0011
,
0100
1000
0010
0001
0100
1010
1100
1010
,
0001
0100
0010
1000
0001
0110
1001
0110
,
0001
0010
0100
0001
1000
1100
0111
1101
,
0111
1111
1000
0101
0010
0110
1001
0110
,
0010
0011
1000
0101
0010
1100
0110
0011
,
0010
1100
0001
0110
1000
0101
1010
1100
,
0001
1010
0100
0101
0001
0110
1001
0101
,
0010
1100
0001
0101
0010
1100
1001
0110
,
1000
0101
0011
1100
0001
1010
0101
1010
,
0100
0011
0100
0101
0010
1010
0101
0011
,
0010
1100
0001
0101
0010
1110
0100
0111
,
0001
0000
1011
0100
1000
0100
0011
0100
0010
1000
0010
0001
1000
0010
1100
0001
,
0010
1000
0010
0100
1000
0010
0101
0010
0001
1000
0010
0001
1000
0100
0011
1000
,
0001
0100
0001
0100
1000
0010
1001
0100
1000
0010
0001
0010
0100
1000
0011
0100
,
0010
0001
0010
1000
0100
0010
0101
1000
0001
0010
0100
0001
1000
0010
1001
0100
,
0001
1000
0012
0100
0010
0100
1010
0100
0010
0100
2013
0001
0100
0001
0110
0001
,
0100
0010
3201
1000
0001
1000
0001
0010
0001
1000
0310
1000
0100
0001
1010
0100
,
0001
0010
1102
0010
0100
0010
1000
0100
0010
0100
1023
0100
0001
1000
0001
1000
,
0100
1000
0231
1000
0001
0010
0001
0010
1000
0001
1311
0000
0100
0000
1101
0000
,
0010
0000
1011
0100
0001
0010
1100
0010
0100
1000
0010
0100
1000
0100
0011
0100
,
1000
0001
0010
0001
0010
0100
1001
0010
1000
0001
0100
0001
1000
0001
0110
0001
,
0100
0010
1000
0100
0001
0010
1001
0100
1000
0010
0001
0010
0100
1000
0011
0100
,
0001
0010
1000
0010
0100
0010
0101
0010
0001
1000
0110
0001
0010
0100
0001
0010
,
1000
0001
2100
0010
0001
0100
0001
0100
0010
0100
3012
0100
0010
0100
1000
0010
,
0100
0010
1203
0001
0010
0001
1000
0010
1000
0001
1310
0100
0001
1000
0010
0100
,
0010
0001
1120
0001
1000
0100
0001
0100
0001
1000
0132
0010
1000
0100
0010
0100
,
1000
0010
2103
0010
0001
0100
0010
0001
0010
0100
3022
0100
1000
0100
1003
0001
,
0100
1000
0232
1000
0010
1000
0310
1000
0100
0010
2203
0010
0001
0010
0301
0100
,
0010
0100
3202
0010
1000
0010
1003
0001
0010
0001
2320
0001
0100
0001
3100
1000
,
0001
0100
2032
0100
0010
0100
0013
0001
0100
0010
3202
1000
0010
1000
0310
1000
,
0100
1000
0113
0000
0001
0000
1100
0000
0010
0000
0101
0000
0010
0000
1001
0000
,
0100
0101
0001
1100
0010
0110
0001
1010
,
0100
0011
1000
0101
0010
1100
0010
1001
,
0100
0011
1000
0101
0010
1001
0010
1100
,
0001
0101
0010
1010
1000
0011
0010
1100
,
0001
0101
0100
1001
0010
1100
1101
0111
,
1110
0101
0001
0110
1000
0101
0010
1100
,
0001
1001
0100
0101
0010
1100
1101
0111
,
1011
0101
0001
0110
1000
0101
0010
1100
,
0001
1001
0100
0101
0001
1100
0010
0110
,
0001
1010
1000
0011
0100
0101
0010
1100
,
0001
0110
1000
0101
0001
0011
1000
0101
,
0010
1100
0001
0110
0100
1100
0001
0101
,
0100
0011
1000
0101
0100
0011
1000
0101
,
0010
1100
0001
1001
0010
1100
0100
0101
,
0010
1100
0001
0110
1000
0111
0010
1101
,
0100
0000
1110
0001
1000
0100
1001
0010
1000
0100
0001
0010
0001
0100
0011
1000
,
0100
0001
1000
0100
1000
0001
1010
0100
0010
0001
0010
0100
0010
0001
0110
1000
,
0100
0001
0100
1000
0100
0010
0101
0010
0100
0010
1000
0100
0010
0100
1010
0001
,
0100
0010
1000
0001
0010
0100
1010
0100
0001
0010
0100
0010
0100
0001
1010
0100
,
0010
0100
1002
0010
1000
0100
0010
0100
0010
0100
1023
0100
0001
1000
0100
1000
,
0100
0001
1230
0001
1000
0010
1000
0001
0010
0001
1310
0001
1000
0100
0010
0100
,
1000
0001
2010
0100
0010
0001
0100
0010
0100
0001
3120
0001
1000
0100
1000
0001
,
1000
0001
1230
0001
0010
1000
0001
0010
1000
0001
1310
0000
0100
0000
1110
0000
,
0001
0000
0111
1000
0001
1000
0101
0010
0001
0010
0100
1000
0010
0100
1001
0010
,
0001
1000
0100
0010
0100
0001
1010
0100
0010
1000
0001
0010
0100
0001
1100
0010
,
0100
0010
0001
0010
0100
1000
0110
1000
0010
0100
1000
0100
0010
1000
0101
0010
,
0001
1000
0010
0100
0001
0010
1001
0100
0010
0001
0100
0010
0001
0010
1100
0010
,
0001
1000
0201
1000
0001
1000
0010
1000
0001
0010
2301
0010
0100
0010
0100
0001
,
0100
0001
3120
1000
0001
0100
0001
0100
1000
0001
1130
0001
1000
0100
0010
0100
,
1000
0100
1002
0100
0010
1000
0100
0010
0100
0010
1203
0001
1000
0010
0001
0010
,
1000
0010
1302
0010
1000
0100
0010
1000
0010
0100
2023
0100
0001
0100
0031
0010
,
0100
0010
3202
1000
0010
1000
0013
0001
1000
0010
2302
0100
0010
0100
0013
0001
,
0100
0010
3202
1000
0010
1000
0310
1000
0100
1000
0223
0001
1000
0001
1300
0100
,
1000
0001
2231
0010
0001
0010
3001
1000
0001
1000
0322
0100
1000
0100
1003
0100
,
1001
0100
1031
0000
1000
0000
0011
0000
0100
0000
0110
0000
0001
0000
1010
0000
,
0100
0011
1000
0101
0010
1100
0001
0110
,
1000
0011
0100
0110
0001
1010
0100
0011
,
0001
1010
0100
0110
0001
1100
0010
0101
,
1000
0011
0100
0110
0001
1010
0100
0011
,
0001
1010
0100
0011
1000
0101
0010
1100
,
0100
1011
1100
1100
0110
0110
0011
0011
,
0101
0101
1001
1001
1110
1110
0111
0111
,
1001
0010
1201
0000
0010
0000
0001
0000
0010
0000
1000
0000
0010
0000
0001
0000
,
0010
2300
0100
0010
0001
0010
0100
0010
,
0001
3020
0100
1000
0100
0001
0100
1000
,
0100
0032
0100
0010
0100
1000
0110
1100
,
1010
0000
2113
0001
0100
0010
0101
0010
0001
0100
3012
1000
0100
0010
1100
0010
,
0100
1000
0213
1000
0001
1000
0011
1000
0001
0010
1301
0010
1000
0010
1001
0010
,
0001
0100
1012
0100
1000
0010
1100
0010
0000
0100
2013
0100
0010
0001
0110
0001
,
0100
0010
3201
0010
1000
0001
1010
0001
1000
0010
1301
0000
0111
0000
1110
0000
,
1011
0000
1110
0001
0010
0001
1010
0100
1000
0100
0011
0100
1000
0010
0101
0010
,
0100
0010
1001
0100
0010
0100
1010
0100
0010
0001
0110
1000
0100
0010
1001
0010
,
0100
1000
0011
0100
0010
0001
1100
0010
1000
0100
0011
1000
0100
0010
0101
0010
,
0100
1000
0011
0100
1000
0010
0101
0010
0001
1000
0110
1000
0100
0010
0101
0010
,
0100
0010
1102
0010
1000
0100
1010
0100
1000
0100
2013
0100
0001
0010
0101
0010
,
0001
0100
3021
0100
1000
0001
1100
0001
1000
0100
1031
0100
0001
0010
0101
0010
,
0100
1000
0112
1000
0100
0010
1100
0010
1000
0100
1023
0001
1000
0100
1001
0100
,
0001
1000
0131
1000
0010
0100
1011
0100
0001
0010
1100
0010
0100
0001
1110
0001
,
1000
0100
0011
0100
0010
0100
1011
0100
1000
0100
0011
0100
0010
0001
1110
0001
,
1000
0100
0011
0100
0001
0010
1101
0010
0001
0010
1001
0100
1000
0010
1101
0010
,
0001
0100
1010
0100
0010
1000
0111
1000
0010
1000
0101
0010
1000
0100
1011
0100
,
1000
0001
1010
0100
0010
1000
0111
1000
0100
0010
0101
0010
0100
0010
1101
0010
,
1000
0100
0011
0100
0010
0001
1110
0001
0010
0100
1001
0100
0001
0010
1101
0010
,
0100
1000
0011
0100
1000
0100
1011
0100
0010
0001
0110
1000
0001
0010
1101
0010
,
0100
1000
0011
0100
0001
0010
1101
0010
1000
0010
1101
0010
1000
0010
1101
0010
,
0001
0010
2101
0010
0100
0010
0101
0010
0001
0010
0101
0010
0100
0010
0101
0010
,
0001
0010
3101
0010
1000
0100
1011
0100
0010
0001
1010
0100
0010
0100
1011
0100
,
0001
0010
0101
0010
1000
0100
1011
0100
0010
1000
0011
0100
0010
1000
0111
1000
,
0001
0010
0000
2202
0000
0000
0000
0000
0000
0000
0000
0000
0000
0000
0000
0000
,
0000
0000
0000
0000
,
0000
0000
0000
0000
,
0000
0000
0000
0000
,
0000
0000
0000
0000
,
0000
0000
0000
0000
,
0000
0000
0000
0000
0000
0000
0000
3303
;

//---------------dance-single - ----------------
#NOTES:
     dance-single:
     :
     Medium:
     1:
     0.000,0.000,0.000,0.000,0.000,0.000,0.000,0.000,0.000,0.000:
0000
0000
0000
0000
;

//---------------dance-single - ----------------
#NOTES:
     dance-single:
     :
     Easy:
     1:
     0.000,0.000,0.000,0.000,0.000,0.000,0.000,0.000,0.000,0.000:
0000
0000
0000
0000
;
